PBS - Nazi Mega Weapons: Fortress Berlin (2013)

Language: English

Category: Entertainment


Posted on 2014-05-17, by supnatural.

Description


http://i61.fastpic.ru/big/2014/0517/f8/f854dfbedd8679bd40a360b92b7b56f8.jpg
PBS - Nazi Mega Weapons: Fortress Berlin (2013)
HDTV | 1280x720 | .MKV/AVC @ 3136 Kbps | 53mn 24s | Audio: English AC3 384 kbps, 6 channels | Subs: None | 1.34 GiB
Genre: Documentary

"April 1945. Hitler is in the center of Berlin, 10 meters underground, surrounded by four-meter thick concrete walls, safe from any air attack the Allies can throw at him. But the Russians are advancing on the ground - the Red Army is lined up along the Oder River and going for the Führer."

General
Unique ID : 0 (0x0)
Complete name : Nazi.Mega.Weapons.Fortress.Berlin.mkv
Format : Matroska
Format version : Version 4 / Version 2
File size : 1.34 GiB
Duration : 53mn 24s
Overall bit rate : 3 591 Kbps

Video
ID : 1
Format : AVC
Format/Info : Advanced Video Codec
Format profile : [email protected]
Format settings, CABAC : Yes
Format settings, ReFrames : 5 frames
Codec ID : V_MPEG4/ISO/AVC
Duration : 53mn 24s
Bit rate : 3 136 Kbps
Width : 1 280 pixels
Height : 720 pixels
Display aspect ratio : 16:9
Frame rate : 25.000 fps
Color space : YUV
Chroma subsampling : 4:2:0
Bit depth : 8 bits
Scan type : Progressive
Bits/(Pixel*Frame) : 0.136
Stream size : 1.17 GiB (87%)
Writing library : x264 core 142 r2409M d6b4e63
Encoding settings : cabac=1 / ref=5 / deblock=1:0:0 / analyse=0x3:0x113 / me=umh / subme=8 / psy=1 / psy_rd=1.00:0.00 / mixed_ref=1 / me_range=16 / chroma_me=1 / trellis=1 / 8x8dct=1 / cqm=0 / deadzone=21,11 / fast_pskip=1 / chroma_qp_offset=-2 / threads=12 / lookahead_threads=2 / sliced_threads=0 / nr=0 / decimate=1 / interlaced=0 / bluray_compat=0 / constrained_intra=0 / bframes=3 / b_pyramid=2 / b_adapt=2 / b_bias=0 / direct=3 / weightb=1 / open_gop=0 / weightp=2 / keyint=250 / keyint_min=25 / scenecut=40 / intra_refresh=0 / rc_lookahead=50 / rc=crf / mbtree=1 / crf=21.0 / qcomp=0.60 / qpmin=0 / qpmax=69 / qpstep=4 / ip_ratio=1.40 / aq=1:1.00
Language : English
Default : Yes
Forced : No
Matrix coefficients : BT.709-5, BT.1361, IEC 61966-2-4 709, SMPTE RP177

Audio
ID : 2
Format : AC-3
Format/Info : Audio Coding 3
Mode extension : CM (complete main)
Format settings, Endianness : Big
Codec ID : A_AC3
Duration : 53mn 24s
Bit rate mode : Constant
Bit rate : 384 Kbps
Channel(s) : 6 channels
Channel positions : Front: L C R, Side: L R, LFE
Sampling rate : 48.0 KHz
Bit depth : 16 bits
Compression mode : Lossy
Stream size : 147 MiB (11%)
Default : Yes
Forced : No

Text
ID : 3
Format : UTF-8
Codec ID : S_TEXT/UTF8
Codec ID/Info : UTF-8 Plain Text
Language : English
Default : Yes
Forced : No
Screenshots:

http://i61.fastpic.ru/big/2014/0517/1b/0821ee602ff8617123fbbdf97ede821b.jpghttp://i61.fastpic.ru/big/2014/0517/a5/38748d693145fb48d29b07b633723da5.jpg


DOWNLOAD:
Buy Premium To Support Me & Get Resumable Support & Max Speed


Links are Interchangeable - No Password

Sponsored High Speed Downloads
7826 dl's @ 3842 KB/s
Download Now [Full Version]
7456 dl's @ 3023 KB/s
Download Link 1 - Fast Download
9032 dl's @ 2562 KB/s
Download Mirror - Direct Download



Search More...
PBS - Nazi Mega Weapons: Fortress Berlin (2013)

Search free ebooks in ebookee.com!


Links
Download this book

No active download links here?
Please check the description for download links if any or do a search to find alternative books.


Related Books


Comments

No comments for "PBS - Nazi Mega Weapons: Fortress Berlin (2013)".


    Add Your Comments
    1. Download links and password may be in the description section, read description carefully!
    2. Do a search to find mirrors if no download links or dead links.

    required

    required, will not be published

    need login

    required

    Not clear? Click here to refresh.

    Back to Top